osu file format v12

[General]
AudioFilename: smile.mp3
AudioLeadIn: 1000
PreviewTime: 58348
Countdown: 0
SampleSet: Soft
StackLeniency: 0.7
Mode: 0
LetterboxInBreaks: 0
WidescreenStoryboard: 0

[Editor]
DistanceSpacing: 1
BeatDivisor: 4
GridSize: 4

[Metadata]
Title:Santa Claus ni Yoyaku Shite!
TitleUnicode:サンタクロースに予約して!
Artist:yozuca*, Rino, et al
ArtistUnicode:yozuca*, Rino, et al
Creator:Natsu
Version:Normal
Source:C.D. Christmas Days ~Circus Disc Christmas Days~
Tags:-Umi- Gero Sekai-nyan サーカスディスク クリスマスデイズ
BeatmapID:327568
BeatmapSetID:129548

[Difficulty]
HPDrainRate:4
CircleSize:3
OverallDifficulty:4
ApproachRate:5
SliderMultiplier:1.2
SliderTickRate:2

[Events]
//Background and Video events
0,0,"205541.jpg",0,0
Video,0,"christmas.avi"
//Break Periods
//Storyboard Layer 0 (Background)
//Storyboard Layer 1 (Fail)
//Storyboard Layer 2 (Pass)
//Storyboard Layer 3 (Foreground)
//Storyboard Sound Samples
//Background Colour Transformations
3,100,163,162,255

[TimingPoints]
1638,526.315789473684,4,2,3,70,1,0
3743,-100,4,2,3,80,0,0
3874,-100,4,2,1,50,0,0
4269,-100,4,2,1,40,0,0
4795,-100,4,2,1,30,0,0
5322,-100,4,2,1,60,0,0
5848,-100,4,2,1,80,0,0
5980,-100,4,2,1,70,0,0
7953,-100,4,2,1,80,0,0
8085,-100,4,2,1,70,0,0
8216,-100,4,2,2,70,0,0
8348,-100,4,2,1,70,0,0
10059,-100,4,2,1,80,0,0
10322,-100,4,2,2,70,0,0
10453,-100,4,2,1,70,0,0
12164,-100,4,2,1,80,0,0
12295,-100,4,2,1,70,0,0
12427,-100,4,2,2,70,0,0
12559,-100,4,2,1,70,0,0
14269,-100,4,2,1,80,0,0
14401,-100,4,2,1,70,0,0
14532,-100,4,2,2,70,0,0
14664,-100,4,2,1,70,0,0
15059,-100,4,2,2,70,0,0
15190,-100,4,2,1,70,0,0
16637,-100,4,2,2,70,0,0
16769,-100,4,2,1,70,0,0
17690,-100,4,2,2,70,0,0
17822,-100,4,2,1,70,0,0
18480,-100,4,2,3,80,0,0
18743,-100,4,2,4,80,0,0
18874,-100,4,2,3,80,0,0
19006,-100,4,2,4,80,0,0
19137,-100,4,2,3,80,0,0
19401,-100,4,2,4,80,0,0
19532,-100,4,2,3,80,0,0
19664,-100,4,2,4,80,0,0
19795,-100,4,2,3,80,0,0
19927,-100,4,2,4,80,0,0
20059,-100,4,2,3,80,0,0
21769,-100,4,2,1,70,0,0
22822,-100,4,2,1,70,0,0
22953,-100,4,2,2,70,0,0
23085,-100,4,2,1,70,0,0
24006,-100,4,2,2,70,0,0
24137,-100,4,2,1,70,0,0
25059,-100,4,2,2,70,0,0
25190,-100,4,2,1,70,0,0
26111,-100,4,2,2,70,0,0
26243,-100,4,2,1,70,0,0
27164,-100,4,2,2,70,0,0
27295,-100,4,2,1,70,0,0
28216,-100,4,2,2,70,0,0
28348,-100,4,2,1,70,0,0
29269,-100,4,2,2,70,0,0
29401,-100,4,2,1,70,0,0
30322,-100,4,2,2,70,0,0
30453,-100,4,2,1,70,0,0
31374,-100,4,2,2,70,0,0
31506,-100,4,2,1,70,0,0
32427,-100,4,2,2,70,0,0
32559,-100,4,2,1,70,0,0
33480,-100,4,2,2,70,0,0
33611,-100,4,2,1,70,0,0
34006,-100,4,2,2,70,0,0
34137,-100,4,2,1,70,0,0
35585,-100,4,2,2,70,0,0
35716,-100,4,2,1,70,0,0
37427,-100,4,2,1,80,0,0
37559,-100,4,2,3,75,0,0
37690,-100,4,2,2,75,0,0
37822,-100,4,2,1,75,0,0
37953,-100,4,2,1,70,0,0
38611,-100,4,2,1,60,0,0
38743,-100,4,2,2,60,0,0
38874,-100,4,2,1,60,0,0
39532,-100,4,2,3,80,0,0
43743,-100,4,2,1,70,0,0
45059,-100,4,2,2,70,0,0
45190,-100,4,2,1,70,0,0
46111,-100,4,2,2,70,0,0
46243,-100,4,2,1,70,0,0
47164,-100,4,2,2,70,0,0
47295,-100,4,2,1,70,0,0
48216,-100,4,2,2,70,0,0
48348,-100,4,2,1,70,0,0
49269,-100,4,2,2,70,0,0
49532,-100,4,2,1,70,0,0
50322,-100,4,2,2,70,0,0
50453,-100,4,2,1,70,0,0
51374,-100,4,2,2,70,0,0
51637,-100,4,2,1,70,0,0
52164,-100,4,2,3,80,0,0
53480,-100,4,2,2,80,0,0
53611,-100,4,2,1,80,0,0
56374,-100,4,2,3,90,0,0
58480,-100,4,2,1,85,0,1
58743,-100,4,2,2,85,0,1
58874,-100,4,2,1,85,0,1
60322,-100,4,2,2,85,0,1
60453,-100,4,2,1,85,0,1
60848,-100,4,2,2,85,0,1
60980,-100,4,2,1,85,0,1
62953,-100,4,2,2,85,0,1
63085,-100,4,2,1,85,0,1
63480,-100,4,2,2,85,0,1
63611,-100,4,2,1,85,0,1
65059,-100,4,2,2,85,0,1
65322,-100,4,2,3,100,0,1
66111,-100,4,2,2,85,0,1
66243,-100,4,2,1,85,0,1
67164,-100,4,2,2,85,0,1
67295,-100,4,2,1,85,0,1
67690,-100,4,2,2,85,0,1
67822,-100,4,2,1,85,0,1
69269,-100,4,2,2,85,0,1
69401,-100,4,2,1,85,0,1
69795,-100,4,2,2,85,0,1
69927,-100,4,2,1,85,0,1
71374,-100,4,2,2,85,0,1
71506,-100,4,2,1,85,0,1
72427,-100,4,2,2,85,0,1
72559,-100,4,2,1,85,0,1
73480,-100,4,2,2,85,0,1
73611,-100,4,2,1,85,0,1
74006,-100,4,2,2,85,0,1
74137,-100,4,2,1,85,0,1
75585,-100,4,2,2,85,0,1
75716,-100,4,2,1,85,0,1
77164,-100,4,2,2,85,0,1
77295,-100,4,2,1,85,0,1
77690,-100,4,2,2,85,0,1
77822,-100,4,2,1,85,0,1
78743,-100,4,2,2,85,0,1
78874,-100,4,2,1,85,0,1
79795,-100,4,2,2,85,0,1
79927,-100,4,2,1,85,0,1
82427,-100,4,2,2,85,0,1
82559,-100,4,2,1,85,0,1
82953,-100,4,2,2,85,0,1
83085,-100,4,2,1,85,0,1
84006,-100,4,2,2,85,0,1
84137,-100,4,2,1,85,0,1
86111,-100,4,2,2,85,0,1
86243,-100,4,2,1,85,0,1
87164,-100,4,2,2,85,0,1
87295,-100,4,2,1,85,0,1
88216,-100,4,2,2,85,0,1
88348,-100,4,2,1,85,0,1
89269,-100,4,2,2,85,0,1
89401,-100,4,2,1,85,0,1
90322,-100,4,2,2,85,0,1
90453,-100,4,2,1,85,0,1
91374,-100,4,2,2,85,0,1
91506,-100,4,2,1,85,0,1
92164,-100,4,2,1,75,0,0
92427,-100,4,2,2,75,0,0
92559,-100,4,2,1,75,0,0
93480,-100,4,2,2,75,0,0
93611,-100,4,2,1,75,0,0
95980,-100,4,2,3,60,0,0
96374,-100,4,2,3,50,0,0
96901,-100,4,2,3,40,0,0
97427,-100,4,2,3,30,0,0
97953,-100,4,2,3,20,0,0
98216,-100,4,2,3,10,0,0
98480,-100,4,2,3,5,0,0

[Colours]
Combo1 : 0,140,0
Combo2 : 202,0,0
Combo3 : 0,0,234
Combo4 : 236,0,118
Combo5 : 255,192,0

[HitObjects]
148,224,1638,2,0,P|104:184|96:124,1,120,2|2,0:0|0:0,0:0:0:0:
204,72,2690,2,0,P|248:112|256:172,1,120,2|2,0:0|0:0,0:0:0:0:
256,300,3743,1,2,0:0:0:0:
256,192,3874,12,8,5322,0:0:0:0:
256,188,5848,6,0,L|256:120,2,60,4|8|2,0:0|0:0|0:0,0:0:0:0:
256,248,6637,2,0,P|276:300|344:316,1,120,8|8,0:0|0:0,0:0:0:0:
388,292,7427,2,0,L|452:248,1,60,2|8,0:0|0:0,0:0:0:0:
488,224,7953,2,0,P|484:164|440:124,1,120,4|2,0:0|0:0,0:0:0:0:
384,112,8743,2,0,L|308:100,1,60,8|2,0:0|0:0,0:0:0:0:
208,84,9532,1,2,0:0:0:0:
92,60,10059,6,0,P|96:128|128:172,1,120,4|2,0:0|0:0,0:0:0:0:
180,192,10848,2,0,P|216:184|240:168,2,60,8|2|8,0:0|0:0|0:0,0:0:0:0:
128,220,11637,2,0,P|120:256|124:288,1,60,2|8,0:0|0:0,0:0:0:0:
156,328,12164,2,0,P|212:344|280:328,1,120,4|2,0:0|0:0,0:0:0:0:
316,292,12953,1,8,0:0:0:0:
384,192,13480,2,0,P|416:184|448:184,2,60,8|2|8,0:0|0:0|0:0,0:0:0:0:
324,200,14269,6,0,B|256:192|236:128|236:128|176:104|132:160,1,240,4|2,0:0|0:0,0:0:0:0:
64,260,15848,1,2,0:0:0:0:
144,344,16374,2,0,P|204:328|240:272,1,120,6|2,0:0|0:0,0:0:0:0:
252,164,17427,2,0,P|312:180|348:236,1,120,2|2,0:0|0:0,0:0:0:0:
280,324,18480,6,0,P|380:336|440:292,2,180,4|2|4,0:0|0:0|0:0,0:0:0:0:
232,284,20322,1,4,0:0:0:0:
144,204,20848,2,0,P|100:188|48:192,2,90,4|4|4,0:0|0:0|0:0,0:0:0:0:
232,284,22164,1,8,0:0:0:0:
324,204,22690,6,0,P|360:152|360:88,1,120,4|2,0:0|0:0,0:0:0:0:
260,36,23743,2,0,P|209:67|183:120,1,120,2|2,0:0|0:0,0:0:0:0:
196,180,24532,1,8,0:0:0:0:
216,236,24795,2,0,P|200:292|144:324,1,120,2|2,0:0|0:0,0:0:0:0:
60,244,25848,2,0,P|81:189|134:163,1,120,2|2,0:0|0:0,0:0:0:0:
256,172,26901,6,0,P|312:152|368:124,1,120,2|2,0:0|0:0,0:0:0:0:
412,16,27953,2,0,P|356:36|300:64,1,120,2|2,0:0|0:0,0:0:0:0:
248,88,28743,1,8,0:0:0:0:
196,60,29006,2,0,P|142:33|85:13,1,120,2|2,0:0|0:0,0:0:0:0:
8,104,30059,2,0,P|27:160|54:214,1,120,2|2,0:0|0:0,0:0:0:0:
72,332,31111,6,0,P|128:308|164:256,1,120,6|2,0:0|0:0,0:0:0:0:
176,204,31901,1,8,0:0:0:0:
188,144,32164,2,0,P|223:96|278:73,1,120,2|2,0:0|0:0,0:0:0:0:
396,88,33216,2,0,P|448:64|476:4,2,120,2|2|0,0:0|0:0|0:0,0:0:0:0:
276,80,34795,2,0,L|256:148,1,60,2|8,0:0|0:0,0:0:0:0:
240,196,35322,6,0,P|200:244|144:252,1,120,2|2,0:0|0:0,0:0:0:0:
44,188,36374,2,0,P|24:216|28:256,2,60,2|8|2,0:0|0:0|0:0,0:0:0:0:
160,148,37427,2,0,B|212:116|212:116|212:57,1,120,4|10,0:0|0:0,0:0:0:0:
256,16,38216,1,0,0:0:0:0:
299,57,38480,2,0,B|299:115|299:115|351:147,1,120,6|8,0:0|0:0,0:0:0:0:
452,212,39532,6,0,P|456:244|452:276,2,60,6|6|6,0:0|0:0|0:0,0:0:0:0:
128,132,41637,6,0,P|124:100|128:68,2,60,6|6|6,0:0|0:0|0:0,0:0:0:0:
458,216,43743,5,6,0:0:0:0:
400,320,44269,1,2,0:0:0:0:
288,360,44795,2,0,P|220:356|180:324,1,120,6|6,0:0|0:0,0:0:0:0:
64,348,45848,2,0,P|68:280|100:240,1,120,4|2,0:0|0:0,0:0:0:0:
84,124,46901,2,0,P|152:128|192:160,1,120,2|2,0:0|0:0,0:0:0:0:
256,260,47953,6,0,B|292:316|356:320|356:320|404:272,2,180,6|8|2,0:0|0:0|0:0,0:0:0:0:
256,140,50059,2,0,B|220:84|156:80|156:80|108:128,2,180,6|8|2,0:0|0:0|0:0,0:0:0:0:
256,260,52164,6,0,P|240:284|212:304,2,60,6|6|6,0:0|0:0|0:0,0:0:0:0:
292,176,53085,2,0,P|356:124|424:120,1,150,2|2,0:0|0:0,0:0:0:0:
394,236,54269,1,6,0:0:0:0:
256,192,54401,12,0,56374,0:0:0:0:
256,192,56901,6,0,L|256:72,2,120,6|6|6,0:0|0:0|0:0,0:0:0:0:
256,312,58480,6,0,P|196:336|128:320,1,120,4|2,0:0|0:0,0:0:0:0:
92,296,59269,2,0,P|68:236|84:168,1,120,8|8,0:0|0:0,0:0:0:0:
108,132,60059,2,0,P|168:108|236:124,2,120,2|4|2,0:0|0:0|0:0,0:0:0:0:
180,228,61637,1,2,0:0:0:0:
300,212,62164,1,2,0:0:0:0:
260,100,62690,6,0,P|368:116|416:228,1,240,4|0,0:0|0:0,0:0:0:0:
340,320,64269,1,2,0:0:0:0:
224,352,64795,2,0,P|168:336|128:288,1,120,4|2,0:0|0:0,0:0:0:0:
24,228,65848,2,0,P|64:184|128:172,1,120,2|2,0:0|0:0,0:0:0:0:
180,176,66637,1,8,0:0:0:0:
228,208,66901,6,0,P|284:232|348:224,2,120,6|2|2,0:0|0:0|0:0,0:0:0:0:
304,116,68480,1,2,0:0:0:0:
424,120,69006,2,0,P|412:60|370:11,2,120,6|2|2,0:0|0:0|0:0,0:0:0:0:
304,116,70585,1,2,0:0:0:0:
196,64,71111,6,0,P|136:72|88:120,1,120,4|2,0:0|0:0,0:0:0:0:
76,228,72164,2,0,P|64:268|12:308,2,90,2|2|8,0:0|0:0|0:0,0:0:0:0:
120,188,73216,2,0,P|180:184|240:216,2,120,4|2|6,0:0|0:0|0:0,0:0:0:0:
160,300,74795,1,2,0:0:0:0:
268,352,75322,6,0,P|328:352|376:316,1,120,6|2,0:0|0:0,0:0:0:0:
396,260,76111,2,0,P|353:217|294:209,1,120,8|8,0:0|0:0,0:0:0:0:
236,216,76901,2,0,P|177:206|136:164,2,120,2|4|2,0:0|0:0|0:0,0:0:0:0:
292,108,78480,2,0,P|250:66|192:56,1,120,2|2,0:0|0:0,0:0:0:0:
84,104,79532,6,0,L|44:220,1,120,6|2,0:0|0:0,0:0:0:0:
36,276,80322,2,0,P|76:320|140:328,1,120,8|8,0:0|0:0,0:0:0:0:
192,320,81111,1,2,0:0:0:0:
280,236,81637,1,4,0:0:0:0:
320,124,82164,2,0,P|272:88|204:88,2,120,2|2|2,0:0|0:0|0:0,0:0:0:0:
436,148,83743,6,0,P|412:204|356:236,1,120,6|2,0:0|0:0,0:0:0:0:
244,248,84795,1,6,0:0:0:0:
152,172,85322,1,6,0:0:0:0:
116,56,85848,2,0,P|60:84|36:136,1,120,6|0,0:0|0:0,0:0:0:0:
56,192,86637,2,0,B|92:240|80:288|80:288|120:308|176:288,1,180,12|2,0:0|0:0,0:0:0:0:
212,276,87690,1,8,0:0:0:0:
264,248,87953,6,0,P|304:204|308:136,1,120,2|2,0:0|0:0,0:0:0:0:
251,40,89006,2,0,P|212:83|205:142,1,120,2|2,0:0|0:0,0:0:0:0:
264,248,90059,2,0,P|208:264|148:244,1,120,6|2,0:0|0:0,0:0:0:0:
91,139,91111,2,0,P|148:123|205:142,1,120,6|2,0:0|0:0,0:0:0:0:
264,248,92164,6,0,P|312:288|372:296,1,120,6|2,0:0|0:0,0:0:0:0:
452,272,93085,2,0,P|484:196|460:120,1,150,2|2,0:0|0:0,0:0:0:0:
364,76,94269,2,0,L|368:16,2,60,6|8|2,0:0|0:0|0:0,0:0:0:0:
344,164,95190,2,0,P|271:178|204:147,1,150,2|4,0:0|0:0,0:0:0:0:
256,192,95980,12,0,98480,0:0:0:0:
